Tuesday, 23/Jul/2024, 4:40 AM

Welcome Guest

Main 2023 » February » 4 Katatonia / Sky Void of Stars [Limited Mediabook Edition] + High Resolution (2023)
2:40 AM
Katatonia / Sky Void of Stars [Limited Mediabook Edition] + High Resolution (2023)
bandLogo
albumRender
Encyclopaedia Metallum Band Profile Discogs Album Profile

General Information

  • Performer: Katatonia
  • Album: Sky Void of Stars [Limited Mediabook Edition]
  • Label: Napalm Records
  • Catalog Number: NPR1208MB
  • Genre (s): Gothic Metal / Progressive Metal
  • Year: 2023
  • Country: Sweden
  • Format (s): FLAC (image/cue/log) / FLAC (tracks) / JPEG (96 dpi)
  • File (s) Size: (Compact Disc) FLAC - 328.2MB / (Digital Download) FLAC - 580MB / (Scanned Media) JPEG - 140MB
  • Host (s): TeraBox
  • Recovery Record: 3%
  • Password: massacre

Members in this Release

  • Jonas Renkse - Vocals
  • Roger Öjersson - Guitars
  • Niklas Sandin - Bass
  • Anders Nyström - Guitars
  • Daniel Moilanen - Drums

Guests / Session

  • Joel Ekelöf - Vocals (on track 7)

Tracklist

Compact Disc - Original Album

01. Austerity (3:41)
02. Colossal Shade (4:29)
03. Opaline (5:01)
04. Birds (4:09)
05. Drab Moon (4:00)
06. Author (4:17)
07. Impermanence (5:12)
08. Sclera (4:45)
09. Atrium (4:09)
10. No Beacon To Illuminate Our Fall (6:08)

Bonus Tracks
11. Absconder (4:48)

Total Playing Time: 00:50:38

Tracklist

Digital Download - [TR24][OF] High Resolution 24-Bit - 44.1 kHz

01. Austerity (3:41)
02. Colossal Shade (4:29)
03. Opaline (5:01)
04. Birds (4:09)
05. Drab Moon (4:00)
06. Author (4:17)
07. Impermanence (5:12)
08. Sclera (4:45)
09. Atrium (4:09)
10. No Beacon to Illuminate Our Fall (6:08)

Bonus Tracks
11. Absconder (4:48)

Total Playing Time: 00:50:38

Exact Audio Copy V1.6 from 23. October 2020

EAC extraction logfile from 3. February 2023, 20:15

Katatonia / Sky Void Of Stars

Used drive : HL-DT-STBD-RE BE14NU40 Adapter: 1 ID: 0

Read mode : Secure
Utilize accurate stream : Yes
Defeat audio cache : Yes
Make use of C2 pointers : No

Read offset correction : 6
Overread into Lead-In and Lead-Out : No
Fill up missing offset samples with silence : Yes
Delete leading and trailing silent blocks : No
Null samples used in CRC calculations : Yes
Used interface : Native Win32 interface for Win NT & 2000

Used output format : Internal WAV Routines
Sample format : 44.100 Hz; 16 Bit; Stereo


TOC of the extracted CD

 Track | Start | Length | Start sector | End sector 
 ---------------------------------------------------------
 1 | 0:00.00 | 3:41.15 | 0 | 16589 
 2 | 3:41.15 | 4:29.08 | 16590 | 36772 
 3 | 8:10.23 | 5:00.42 | 36773 | 59314 
 4 | 13:10.65 | 4:08.40 | 59315 | 77954 
 5 | 17:19.30 | 3:59.46 | 77955 | 95925 
 6 | 21:19.01 | 4:17.32 | 95926 | 115232 
 7 | 25:36.33 | 5:12.28 | 115233 | 138660 
 8 | 30:48.61 | 4:45.06 | 138661 | 160041 
 9 | 35:33.67 | 4:08.57 | 160042 | 178698 
 10 | 39:42.49 | 6:07.74 | 178699 | 206297 
 11 | 45:50.48 | 4:47.50 | 206298 | 227872 


Range status and errors

Selected range

 Filename C:\Users\Corsair\Downloads\[Rutracker_Bars3399]\Riverside - Id.Entity\Katatonia - Sky Void Of Stars.wav

 Peak level 96.2 %
 Extraction speed 1.5 X
 Range quality 100.0 %
 Test CRC BB50E076
 Copy CRC BB50E076
 Copy OK

No errors occurred

 
AccurateRip summary
 
Track 1 not present in database
Track 2 not present in database
Track 3 not present in database
Track 4 not present in database
Track 5 not present in database
Track 6 not present in database
Track 7 not present in database
Track 8 not present in database
Track 9 not present in database
Track 10 not present in database
Track 11 not present in database
 
None of the tracks are present in the AccurateRip database

End of status report

==== Log checksum 4DA3F856031A9B7BD7DEF98C341E5EC676D2DCA722FE7A5E1CE6A5020C62426C ====
foobar2000 1.6.9 / Dynamic Range Meter 1.1.1

--------------------------------------------------------------------------------
Analyzed: Katatonia / Sky Void of Stars
--------------------------------------------------------------------------------

DR Peak RMS Duration Track
--------------------------------------------------------------------------------
DR7 -1.00 dB -9.06 dB 3:41 01-Austerity
DR7 -1.00 dB -9.72 dB 4:29 02-Colossal Shade
DR7 -1.00 dB -10.14 dB 5:01 03-Opaline
DR7 -1.00 dB -9.72 dB 4:09 04-Birds
DR8 -1.00 dB -10.09 dB 4:00 05-Drab Moon
DR7 -1.00 dB -10.04 dB 4:17 06-Author
DR7 -1.00 dB -10.23 dB 5:12 07-Impermanence
DR7 -1.00 dB -10.61 dB 4:45 08-Sclera
DR7 -1.00 dB -9.85 dB 4:09 09-Atrium
DR7 -1.00 dB -10.44 dB 6:08 10-No Beacon to Illuminate Our Fall
DR8 -1.00 dB -10.73 dB 4:48 11-Absconder (Bonus Track)
--------------------------------------------------------------------------------

Number of tracks: 11
Official DR value: DR7

Samplerate: 44100 Hz
Channels: 2
Bits per sample: 24
Bitrate: 1579 kbps
Codec: FLAC
================================================================================
Additional Notes

Release Date

2023-01-20

Recording information

Produced, mixed and mastered at Hansen Studios in Ribe, Denmark.

Download
Online Preview
Progressive Metal, Art Rock 276 MetalMassacre Depressive Metal, Sweden, Doom Metal, Katatonia, 2023 0.0/0
Total comments: 0
Only registered users can add comments.
[ Sign Up | Login ]