Tuesday, 23/Jul/2024, 2:40 AM

Welcome Guest

Main 2022 » April » 13 Scar Symmetry / The Singularity (Phase I: Neohumanity) [Limited Edition] (2014)
6:10 PM
Scar Symmetry / The Singularity (Phase I: Neohumanity) [Limited Edition] (2014)
bandLogo
albumRender
Encyclopaedia Metallum Band Profile Discogs Album Profile

General Information

  • Performer: Scar Symmetry
  • Album: The Singularity (Phase I: Neohumanity) [Limited Edition]
  • Label: Nuclear Blast
  • Catalog Number: 27361 30800
  • Genre (s): Melodic Death Metal
  • Year: 2014
  • Country: Sweden
  • Format (s): FLAC (image/cue/log) / JPEG (Information Not Available)
  • File (s) Size: (Compact Disc 1) FLAC - 335.8MB / (Scanned Media) JPEG - 72.3MB
  • Host (s): GDrive
  • Recovery Record: No
  • Password: massacre

Members in this Release

  • Per Nilsson - Guitars, Programming, Keyboards, Vocals (Clean)
  • Kenneth Seil - Bass
  • Roberth Karlsson - Vocals (Harsh)
  • Henrik Ohlsson - Drums
  • Lars Palmqvist - Vocals (Clean)

Tracklist

Compact Disc - Original Album

1. The Shape of Things to Come (00:52)
2. Neohuman (08:43)
3. Limits to Infinity (04:57)
4. Cryonic Harvest (06:12)
5. The Spiral Timeshift (04:50)
6. Children of the Integrated Circuit [Instrumental] (02:25)
7. Neuromancers (05:11)
8. Technocalyptic Cybergeddon (10:12)

Total Playing Time: 00:43:22

Exact Audio Copy V1.3 from 2. September 2016

EAC extraction logfile from 12. February 2017, 19:37

Scar Symmetry / The Singularity (Phase 1: Neohumanity)

Used drive : ATAPI iHAS122 W Adapter: 2 ID: 0

Read mode : Secure
Utilize accurate stream : Yes
Defeat audio cache : Yes
Make use of C2 pointers : No

Read offset correction : 48
Overread into Lead-In and Lead-Out : No
Fill up missing offset samples with silence : Yes
Delete leading and trailing silent blocks : No
Null samples used in CRC calculations : Yes
Used interface : Installed external ASPI interface

Used output format : User Defined Encoder
Selected bitrate : 1024 kBit/s
Quality : High
Add ID3 tag : No
Command line compressor : C:\Program Files\FLAC\flac.exe
Additional command line options : -V -8 -T "Date=%year%" -T "Genre=%genre%" -T"COMMENT=Ripped by Ilijan - ilko" -8 -V %source%


TOC of the extracted CD

 Track | Start | Length | Start sector | End sector 
 ---------------------------------------------------------
 1 | 0:00.00 | 0:52.67 | 0 | 3966 
 2 | 0:52.67 | 8:43.16 | 3967 | 43207 
 3 | 9:36.08 | 4:57.69 | 43208 | 65551 
 4 | 14:34.02 | 6:12.74 | 65552 | 93525 
 5 | 20:47.01 | 4:50.33 | 93526 | 115308 
 6 | 25:37.34 | 2:25.22 | 115309 | 126205 
 7 | 28:02.56 | 5:11.11 | 126206 | 149541 
 8 | 33:13.67 | 10:12.52 | 149542 | 195493 


Range status and errors

Selected range

 Filename D:\ilko\Scar Symmetry - The Singularity (Phase 1- Neohumanity).wav

 Peak level 96.6 %
 Extraction speed 3.6 X
 Range quality 100.0 %
 Test CRC CE4CB820
 Copy CRC CE4CB820
 Copy OK

No errors occurred

 
AccurateRip summary
 
Track 1 accurately ripped (confidence 34) [08332A52] (AR v2)
Track 2 accurately ripped (confidence 34) [3B6CC2A0] (AR v2)
Track 3 accurately ripped (confidence 34) [12B22571] (AR v2)
Track 4 accurately ripped (confidence 34) [E3140AA2] (AR v2)
Track 5 accurately ripped (confidence 34) [286572C8] (AR v2)
Track 6 accurately ripped (confidence 34) [EE26022C] (AR v2)
Track 7 accurately ripped (confidence 34) [FB8E5625] (AR v2)
Track 8 accurately ripped (confidence 34) [EF12D062] (AR v2)
 
All tracks accurately ripped

End of status report

---- CUETools DB Plugin V2.1.6

[CTDB TOCID: xn9kLhFRkgZCAfULc7pv3PE54i0-] found
Submit result: already submitted
Track | CTDB Status
 1 | (87/88) Accurately ripped
 2 | (87/88) Accurately ripped
 3 | (87/88) Accurately ripped
 4 | (87/88) Accurately ripped
 5 | (87/88) Accurately ripped
 6 | (87/88) Accurately ripped
 7 | (86/88) Accurately ripped
 8 | (86/88) Accurately ripped


==== Log checksum 17AE8156276980127539CA252384E92082FD5A9B354CA089B075E52531DAC1F1 ====
Additional Notes

Release Date

2014-10-03

Recording information

Recorded, mixed and mastered at Studio Kabyss, Gävle, Sweden.

Drums recorded at Studio Overlook, Gävle, Sweden.

Download
Online Preview
Brutal Death, Grindcore, Melodic Death, Symphonic Death Metal 494 MetalMassacre Sweden, Scar Symmetry, melodic death metal, 2014, Christian Älvestam 0.0/0
Total comments: 0
Only registered users can add comments.
[ Sign Up | Login ]